MacProVideo - Logic 409: Dubstep Essentials (2012)

Category: Lyrics


Posted on 2012-04-04. By anonymous.

Description


MacProVideo - Logic 409: Dubstep Essentials (2012)
MOV | AVC 374kbps | English | 960x540 | 10fps | 1h 51mins | AAC stereo 110kbps | 339 MB
Genre: Video Training

MPV trainer Nigel Broad is back with another great electronic dance music exploration, Dubstep Essentials. Join Nigel as he takes you under his wing while he creates a full-blown Dubstep track from Drum and Bass to final mix. Dubstep is an exciting style of music that lends itself to a lot of creativity and the powerful use of plugins and virtual instruments of all kinds. Nigel Broad, a chart-topping dance producer, knows a thing or two about Dubstep and in this Logic tutorial he creates a full-blown Dubstep track, starting with the drum programming and evolving all the way through the final mix. This 25-video class starts off with Logic’s mighty Ultrabeat drum machine, where you’ll learn to set up, program and tweak a killer Dubstep drum beat. Nigel is the ultimate Ultrabeat and Logic master and shares his hit-making tips throughout this tutorial.

What’s a Dubstep track without a Wobble bass? Using the ES 2, Massive and RAZOR, Nigel shows you how to create a composite bass line that will blow you away! Next he conjures up some cool pads, leads and SFX that really make the track shine. Finally, Nigel wraps it up by talking about song structure before he mixes and masters his custom track.

Check out all of MPV's world class collection of award-winning Logic tutorials below!

Chapter 1: Dubstep Essentials
1: Dubstep Drum Basics
01:48
1. Introduction
03:08
2. Organizing Ultrabeat
04:36
3. Pre-Production Pt 1: Finder
01:56
4. Pre-Prod. Pt 2: Back to Ultrabeat
05:14
5. Setting Up a Kit in Ultrabeat
2: Dubstep Drums
07:50
6. Drum Patterns in Dubstep - Part 1
04:20
7. Drum Patterns in Dubstep - Part 2
02:18
8. Dubstep Drums Sound Design - Part 1
03:45
9. Dubstep Drums Sound Design - Part 2
04:50
10. Dubstep Drums Sound Design - Part 3
3: Creating a Dubstep Bass
05:49
11. Wobble Bass in ES2
06:50
12. Wobble Bass in NI’s Massive
08:40
13. Talking Bass in NI’s RAZOR
04:39
14. Creating a Dubstep Bassline
4: Instrumental Elements in Dubstep
05:59
15. Glitch Effects
04:07
16. Pads and Leads
04:22
17. Sound FX and Atmospheres
07:10
18. Wild & Wacky Sound Design
5: Tips for Track Building
03:10
19. Song Structure Basics
03:30
20. The Art of The Drop
03:38
21. Vocal Tracks vs. Instrumentals
03:17
22. Hybrid Song Structures
6: Mixing and Mastering
04:07
23. Mixing Techniques for Dubstep
03:36
24. Mastering Tips
02:03
25. Conclusion

Mediainfo:

Format : MPEG-4
Format profile : QuickTime
Codec ID : qt
File size : 12.5 MiB
Duration : 3mn 36s
Overall bit rate : 487 Kbps
Encoded date : UTC 2012-02-15 22:30:11
Tagged date : UTC 2012-02-15 22:30:12
Writing library : Apple QuickTime
com.apple.finalcutstudio.media.uuid : FD7835AC-44AE-4606-B12D-EA9DDA9D70C3
Video #1
ID : 1
Format : AVC
Format/Info : Advanced Video Codec
Format profile : [email protected]
Format settings, CABAC : No
Format settings, ReFrames : 2 frames
Codec ID : avc1
Codec ID/Info : Advanced Video Coding
Duration : 3mn 36s
Bit rate mode : Variable
Bit rate : 374 Kbps
Width : 960 pixels
Height : 540 pixels
Display aspect ratio : 16:9
Frame rate mode : Constant
Frame rate : 10.000 fps
Resolution : 24 bits
Colorimetry : 4:2:0
Scan type : Progressive
Bits/(Pixel*Frame) : 0.072
Stream size : 9.63 MiB (77%)
Encoded date : UTC 2012-02-15 22:30:11
Tagged date : UTC 2012-02-15 22:30:12
colour_primaries : BT.709-5, BT.1361, IEC 61966-2-4, SMPTE RP177
transfer_characteristics : BT.709-5, BT.1361
matrix_coefficients : BT.709-5, BT.1361, IEC 61966-2-4 709, SMPTE RP177
Audio #2
ID : 2
Format : AAC
Format/Info : Advanced Audio Codec
Format version : Version 4
Format profile : LC
Format settings, SBR : No
Codec ID : 40
Duration : 3mn 35s
Bit rate mode : Constant
Bit rate : 110 Kbps
Nominal bit rate : 112 Kbps
Channel(s) : 2 channels
Channel positions : L R
Sampling rate : 44.1 KHz
Resolution : 16 bits
Stream size : 2.83 MiB (23%)
Encoded date : UTC 2012-02-15 22:30:11
Tagged date : UTC 2012-02-15 22:30:12







No mirrors please

Visit my blog, click here


Sponsored High Speed Downloads
7339 dl's @ 2926 KB/s
Download Now [Full Version]
7565 dl's @ 3039 KB/s
Download Link 1 - Fast Download
9601 dl's @ 3974 KB/s
Download Mirror - Direct Download



Search More...
MacProVideo - Logic 409: Dubstep Essentials (2012)

Search free ebooks in ebookee.com!


Links
Download this book

No active download links here?
Please check the description for download links if any or do a search to find alternative books.


Related Books


Comments

No comments for "MacProVideo - Logic 409: Dubstep Essentials (2012)".


    Add Your Comments
    1. Download links and password may be in the description section, read description carefully!
    2. Do a search to find mirrors if no download links or dead links.

    required

    required, will not be published

    need login

    required

    Not clear? Click here to refresh.

    Back to Top